Index Of Muse Flac





All requests left in the comments section will be ignored. 95 MB Jazz Funk no1 (saxophone). 옆 네모 박스를 클릭한 후 FLAC를 선택합니다 (선택중 ing) 5. MusE — MIDI/Audio sequencer (digital audio workstation) with recording and editing capabilities, aims to be a complete multitrack virtual studio for Linux. Formed in Teignmouth, Devon in 1994, the band signed with Mushroom Records in the United Kingdom and Maverick Records in the United States before releasing their. Ahora bien, FLAC es importante para nosotros los audiofilos (personas con un marcado sentido en la musica, su calidad, y con altos estandares personales en la fuente musical, con respecto a las grabaciones); siendo FLAC un formato digital bastante flexible nos permite extraer el audio de un CD original sin perder nada de la calidad, comprimiendole en 1/3 con respecto al CD. Artful Electronic songcraft heralding his forthcoming album for Planet Mu. Muse Audio - definitely cheap and I am not amused!!!!! « on: 24 Jun 2011, 01:47 am » Someone here said they got something from Muse Audio and it sounded pretty good so I bought this. Fight Fire With Fire > 04. The group's emotive sound and live dates drew critical acclaim and industry buzz, and after a trip to New York's CMJ festival, Muse signed a deal with Maverick Records. Break It To Me (Sam De Jong Remix) 17. Rotation / Motion 15. Muse - Origins Of Muse (9 CD + 4LP Box Set) - 2019 (Warner Music EU), FLAC (image+. flac DOWNLOAD Pamit - Tulus CD Quality 16-bit/44. The band consists of school friends Matthew Bellamy (lead vocals, guitars, piano, keyboards, keytar), Christopher Wolstenholme (bass, backing vocals, keyboards, guitars, harmonica) and Dominic Howard (drums, percussion, synthesisers, sampling, harmtar). June 2012, 3:56 Maroon 5 / Overexposed Used drive : HL-DT-STDVDRAM GH24NS70 Adapter: 2 ID: 1. 07 Samsung YP-R1 FLAC yes yes. Muse was my favorite band for the longest time but since almost a decade ago theyve been on a slight decline. Parlormuse | Belle of Cuba Quickstep - SINGLE SONG - digital download "Belle of Cuba Quickstep" from Parlormuse's EP, Anything for a Quiet Life, as a digital download (AA. Over The Hills And Far Away. Information. fun This site does not store any files on its server. In that specific case, the sound quality was much improved when playing hi res flac files. 蔡依林 - 专辑《MUSE》整轨无损. Just the cracks in sunburn give me the chills. 50+ videos Play all Mix - Muse - Madness (David Barbiet Remix) YouTube Muse - Supermassive Black Hole ( efgan Remix ) - Duration: 3:31. 00b: October 5 2013 at 22:44: MagicFlute: 0. The transurethral absorption of alprostadil after Muse administration is biphasic. Re: Metallica - September 29, 1988 - N. PERFORMER "Muse" INDEX 00 26:55:37 INDEX 01 26:55:60 TRACK 08 AUDIO TITLE "Uno" PERFORMER "Muse" INDEX 01 30:52:55 TRACK 09 AUDIO TITLE "Sober" PERFORMER "Muse" INDEX 01 34:31:25 TRACK 10 AUDIO TITLE "Escape" PERFORMER "Muse" INDEX 01 38:35:42 TRACK 11 AUDIO TITLE "Overdue" PERFORMER "Muse" INDEX 01 42:07:10 TRACK 12 AUDIO TITLE "Hate This & I'll Love You". which I'd like to ask if you do not mind. Catalog #: WPCR-13629 Style: Alternative Rock Year: 2009 Format: FLAC (image +. Uno (3:38) 9. Jazz Funk no1 (accompagnement). Streaming from Slimserver to Icecast using MuSE - Basic HowTo v 1. Tennis – Swimmer (2020) Hi-Res. Bevat expliciete inhoud. cue to separate the songs. Carlos Cipa is a classically trained pianist, composer and producer that made his mark on the modern classical world with his two records The Monarch and the Viceroy (2012) and All your life you walk (2014) and a variety of EPs. Founded in 2012, Musopen is a 501 (c) 3 non-profit based out of San Francisco, CA. these files are from my copy of a vined pair of flac dvds entitled 'Van Morrison's top 12 shows' (based on a survey) at vantrades (yahoo group) back in '07. 수입정품 - 작업용 최음제, 비아그라, 씨알리스 (클릭) 좋은 자료에는 "좋아요!" / 광고, 불량 자료는 "별로에요"를 눌러주세요! 비회원도 가능!. Uninvited [Alanis Morissette Cover] 09. 하이디) 2- 크리스마스가 오면 (Inst. We only index and link to content provided by other sites. Discussion in ' Computer Audiophile: Software, Configs, Tools ' started by Gravity, Jan 27, 2016. xact Audio Copy V1. Made in JP. > 24-Nov-2004 16:27 1. [百度云网盘]回复:【dl】镇吧 宇宙天后1080i muse pv合辑+flac无损 回复vivid 阎 :大一暑假 舞蹈版1080P // 贴吧 本质蛇哥作者 vivid 阎 关键词: 宇宙天后淋淋 宇宙天后 宇宙天火 宇宙天后表情 宇宙天后 蔡依林 宇宙天后滨崎步 宇宙天火怎么过 宇宙天后怎么过 主人公一. PERFORMER "Muse" INDEX 00 26:55:37 INDEX 01 26:55:60 TRACK 08 AUDIO TITLE "Uno" PERFORMER "Muse" INDEX 01 30:52:55 TRACK 09 AUDIO TITLE "Sober" PERFORMER "Muse" INDEX 01 34:31:25 TRACK 10 AUDIO TITLE "Escape" PERFORMER "Muse" INDEX 01 38:35:42 TRACK 11 AUDIO TITLE "Overdue" PERFORMER "Muse" INDEX 01 42:07:10 TRACK 12 AUDIO TITLE "Hate This & I'll Love You". torrent 음악가의 집 김목인의 "음악가, 음악가란 직업은 무엇인가"를 들으며 일렉트릭 뮤즈 10주년을 기념하는 컴필. 81 MB 01-04-Muse-United_States_Of_Eurasia_Collateral_Damage. Suzanne Vega - An Evening of New York Songs and Stories (2020) Apr-28-2020 I ADD COMMENTS Hayley Williams - Petals For Armor (2020). 2 release highlights: Default to dark theme on macOS Dark Mode; Sticking (the process of assigning certain notes to either our left or right hand) as a new command; A few improvements to user interface. Gasping For Air 10. Muse es una banda británica de rock formada en 1994 en Teignmouth, Inglaterra. (High quality FLAC 24bit lossless Audio file tuned to the ultra clear 432 Hz!) "I do not own the rights to this song or any of it's contents. Dark Root Principal 7. Law of The Seven 6. Excellent and VeryGood Audience Recordings :: Silver CDs :: Lossless FLAC. 즐깁니다 제목: youtube 동영상 음원을 FLAC (무손실 음원)으로 추출하는 법. Uno (3:38) 9. "Citizen Erased" being my favorite Muse song ever as well. Break It To Me 6. Dillemanns Clarity 12. JJ Jackson Intro 03. Biffy Clyro - Many of Horror (04:18) 03. 2M Six Feet Under - Ame. [MUSE] Discography [FLAC 24-bit 96kHz] Posted by luxferre in Music > Lossless. 98: Viewing 1 - 20 of 44 Products. Posts navigation. which I'd like to ask if you do not mind. INDEX 01 00:00:00 TRACK 03 AUDIO TITLE "Daylight" PERFORMER "Maroon 5" INDEX 00 03:51:29 FILE "03 Daylight. Simple Plan - Shut U. 06 Philips GoGear Muse: FLAC yes yes USB ? yes yes 16 microSD Flash 24 h 105g, video 170 € Yes, as of 2011. Arena - Birmingham, ENG, GBR (S2) (AUD) Philip H. Sleep inspired. com · 2019-12-14. 2x 180g Heavyweight Clear 12" Vinyl. Cave (4:46) 6. Low prices across earth's biggest selection of books, music, DVDs, electronics, computers, software, apparel & accessories, shoes, jewelry, tools & hardware, housewares, furniture, sporting goods, beauty & personal care, groceries & just about anything else. Lou Reed - Metro Theatre, Sydney, Australia - 19. (High quality FLAC 24bit lossless Audio file tuned to the ultra clear 432 Hz!) "I do not own the rights to this song or any of it's contents. Over The Hills And Far Away. cue,log, covers) | Mp3, CBR 320 kbps (CD-Rip) Tracklist: 01. Xipe Totec 07. Download Spotify Song 1 Dead Inside. 0 Source 78 User_cleaned Ed Nuestro User_metadataentered Brendan Bucan User_transferred Brendan Bucan. As much as I don't hate the more Pop direction Muse has gone in last decade (even though, the last two albums don't do a lot for me), it simply doesn't compare to the creative, energetic music they were making in the their prime. crashing album/artist view. 00b: October 5 2013 at 23:02: Enigma - Discography [Flac] 0. Thought Contagion 8. Happy The Man (US) - (2004) The Muse Awakens Harmonium (Canada) - (1974) Harmonium Harmonium (Canada) - (1975) Si on Avait Besoin Dune Cinquieme Saison Harmonium (Canada) - (1977) L' Heptade Harmonium (Canada) - (1980) En Tournee Harsh Reality (UK) - (1969) Heaven & Hell Harvey Mandel (US) - (1974) Feel The Sound. Thanks to Lee for sending me this one to share here. Hysteria FLAC. Mp3 is a compressed version of the original recorded CD. Today singer Daniel Daley and GRAMMY® Award-winning producer. Design you can freely adjust according to your fancy, there are millions of ways to do this. Initial absorption is rapid, with approximately 80%. It is available in multiple formats on that page, including FLAC. Muse - The Resistance - Muse 2009. flac" WAVE TRACK 01 AUDIO TITLE "Sunburn" PERFORMER "Muse" INDEX 01 00:00:00 TRACK 02 AUDIO TITLE "Muscle Museum" PERFORMER "Muse" INDEX 01 03:54:47 TRACK 03 AUDIO TITLE "Fillip" PERFORMER "Muse" INDEX 01 08:17:27 TRACK 04 AUDIO TITLE "Falling Down". Staying Embodied 3. The official Muse website. Music catalogue, radio/streaming formats, licensing, streaming apps, analytics/reporting all included. 73 GB Muse 2017 [BluRay] [720p x264] 928 MB Download torrent - Muse drones FLAC | Fast and easy torrent search. Over The Hills And Far Away. Xipe Totec 07. The Adobe Muse Microsite will continue to be available to users until support ends on March 26, 2020. As much as I don't hate the more Pop direction Muse has gone in last decade (even though, the last two albums don't do a lot for me), it simply doesn't compare to the creative, energetic music they were making in the their prime. JJ Jackson Tribute 02. Paradigm 10. Home; Share; Twitch Stream; This is a test of the emergency broadcast system. Jools Holland European Club Tour 2020 (Special Guest. 2M Six Feet Under - Ame. Parlormuse | Belle of Cuba Quickstep - SINGLE SONG - digital download "Belle of Cuba Quickstep" from Parlormuse's EP, Anything for a Quiet Life, as a digital download (AA. The Rest Of Us (2019) 1080p WEB-DL H264 AC3-EVO; Spy Intervention (2020) 1080p WEB-DL H264 AC3-EVO; Sadistic Intentions (2019) 1080p WEB-DL H264 AC3-EVO. Monochrome conversion of öNB's colour scans has been upscaled to 600 dpi, with the last page of the Hostias restored to its pre-1958 state (via 1913 facsimile). A Muse In Her Feelings. Something Human. Something Human (Acoustic) 18. Use at your own peril. Formed in Teignmouth, Devon in 1994, the band signed with Mushroom Records in the United Kingdom and Maverick Records in the United States before releasing their. flac 1 min 23 s; 7. 53 MB The Morning CD/Faith and the Muse - 02 - In dreams of mine. Limited to just 20 copies. Xbmc won't play. John Foxx- Metamatic (1980) Deluxe Edition (Bonus Disc) / The Garden (1981) Deluxe Edition (Bonus Disc) MP3 & FLAC Foxx has suggested his departure was inevitable given his desire to pursue his own muse without interference: "The band thing is a phase- like being in a gang. free download Public Enemy - Muse Sick-N-Hour Mess Age (CD) (1994) (FLAC + 320 kbps) rar. org foundation. VA – Trance 100 2019 (2019) [FLAC] February 18, 2020. Showbiz (5:17) 7. The Song remains The Same. We created MuseFree with a single purpose, and that is to offer the best, highest standard Adobe Muse templates on the market. 15 GB: 84: 6 months: 84: 60: Drake - Discography (2009-2015) [FLAC] Posted by politux in Music > Lossless. free download Public Enemy - Muse Sick-N-Hour Mess Age (CD) (1994) (FLAC + 320 kbps) rar. -Encoders Tested-FLAC v1. [MUSE] Discography [FLAC 24-bit 96kHz] Posted by luxferre in Music > Lossless. What's missing is that little extra oomph of audiophile high-bit candy to get out that last ounce of dynamics and audio information so that you appreciate. Suzanne Vega - An Evening of New York Songs and Stories (2020) Apr-28-2020 I ADD COMMENTS Hayley Williams - Petals For Armor (2020). 8M Six Feet Under - Gri. 8mil truncated conical, 3. Sunday Bloody Sunday 07. 16-bit FLAC; Voorluisteren HBK (Explicit) HBK (Explicit) Yxng Bane 2018 Vanaf €9,49. 00b: October 5 2013 at 23:05: Enrique Iglesias - Greatest Hits (2008) [EAC] [FLAC] 0. First of all I want to say terrific blog! I had a quick question in. 00b: October 5 2013 at 22:34: Flo Rida - Wild Ones (2012) 0. 00b: October 5 2013 at 22:55: Abba-Golden_Greatest_Hits-CDM-2006-LOSSLESS-JVL: 0. Exuma (1970 *Mercury SR 61265) Flac + 320 The debut record from righteous Afro-Bahamian songwriter Macfarlane Gregory Anthony Mackey, aka Exuma. Mp3 is a compressed version of the original recorded CD. 99 MiB] [694. 120 night trial and easy returns. * Cobblestone CST 9010 The Visitors - Neptune = Muse MR 5195 Earl And Carl Grubbs The Visitors - Neptune. 2M Six Feet Under - Ame. Muse - Plug in. Four stylii were used to transfer this record. I never used this codec before, but since I do it I have this problem very often. 45 RPM Vinyl Record. 46 Kibit/s] [00:03:32] 10 - Somewhere Between Waking and Sleeping [feat. Suzanne Vega - An Evening of New York Songs and Stories (2020) Apr-28-2020 I ADD COMMENTS Hayley Williams - Petals For Armor (2020). Print view; crashing album/artist view. 180 Gram Vinyl Record. 1 Lossless Audio v4b Monkeys Audio v4. Simple Plan - Shut U. What's missing is that little extra oomph of audiophile high-bit candy to get out that last ounce of dynamics and audio information so that you appreciate. Initial absorption is rapid, with approximately 80%. 44 MB 01-08-Muse-I_Belong_To_You_Mon_Coeur_S_Ouvre_A_Ta_Voix. drones had some good songs but really lacked in others like their previous efforts. wav 1 min 23 s; 13. The Void 12. Opus One audio. Parlormuse's "Autumn Leaves" (non-album track) as a digital download (AAC, FLAC, and 320kbps mp3 for. Muse are known for their energetic and extravagant live performances ( often being claimed as 'the best live band in the world' ) and their fusion of many music genres, including space rock, progressive rock, alternative rock, heavy metal, classical music and electronica. Paradigm 10. FLAC stands for Free Lossless Audio Codec, an audio format similar to MP3, but lossless, meaning that audio is compressed in FLAC without any loss in quality. 01-06-Muse-Unnatural_Selection. 就爱FLAC无损音乐下载「92flac. His earliest work is an unreal melange of heavy folk dirges, pounding junkanoo ruckus, and the groaning incantations of mythically just, voudoun enlivened cataclysms of spiritual and material. Muse / The 2nd Law FLAC 96kHz/24bit Download XWAR57783F96 $19. Muse was my favorite band for the longest time but since almost a decade ago theyve been on a slight decline. jpg 800 × 462; 79 KB The Syndakit Logo. VA – Trance 100 2019 (2019) [FLAC] February 18, 2020. Learn more about our apps to listen to free streaming classical radio or to motivate learners by tracking practice time. cue) Quality: Hi-Fi, lossless audio Sample Rate: 44. 78_lazy-river_les-brown-and-his-duke-blue-devils-herb-muse-sidney-arodin-hoagy-carmich_gbia0106582b Location USA Scanner Internet Archive Python library 1. Uno (3:38) 9. JJ Jackson Tribute 02. All links to content are provided from other servers and are not affiliated with this website. Play the Game Tonight 05. Neil Hannon]. 78 MB only to index the Torrents meta information and provide search services. Dillemanns Clarity 12. > 09-Dec-2004 16:57 1. Wax Tailor – Hope & Sorrow (2007) [FLAC] February 18, 2020. In 2002, Werner Schweer decided to "cut MusE's notation capabilities out of the sequencer and rewrite it as a standalone notation editor. 34 Kibit/s] [00:03:05] 09 - Lost Message. Big, Green Day, Oasis, Scorpions, Aerosmith, Muse, Dream Theater - 15 Best Rock Songs Duration: 1:14:25. _78_swing-for-sale_les-brown-the-duke-university-blue-devils-herb-muse-sammy-cahn-saul_gbia0062799a_04_3. March 19, 2014 2:00 p. I have also few albums as separated. Propaganda 5. " "Credit goes to the labels and the artist. Something Human (Acoustic) 18. Downloads J-Rock J-Pop Music MP3/AAC/FLAC/ALAC. Thought Contagion 8. The Song remains The Same. Re: Metallica - September 29, 1988 - N. FLAC (/ f l æ k /; Free Lossless Audio Codec) is an audio coding format for lossless compression of digital audio, and is also the name of the free software project producing the FLAC tools, the reference software package that includes a codec implementation. Most of my Library files are FLAC+CUE where the Flac is one file and the Fiio Music use the. (High quality FLAC 24bit lossless Audio file tuned to the ultra clear 432 Hz!) "I do not own the rights to this song or any of it's contents. Florabella Muse Photoshop Actions Set. 18 Kibit/s. I am a very big fan of music and so love to hear songs in CD format rather than mp3 format. Two years later, Muse issued The Origin of Symmetry and had a major hit with Hyper Music. 00b: October 5 2013 at 22:34: Fab Four - Best of Kitaro: 0. Their second album, Origin of Symmetry (2001), incorporated wider instrumentation and romantic classical influences, and earned them a reputation for energetic live performances. Muse found that the people of Wembley Stadium wanted a British band opening the new stadium, and after conferring with the management of the stadium, they viewed playing at the stadium as a 'definite possibility'. David Sylvian - Visions Of Sylvian (Flac) A Fan made collection of rare tracks found somewhere on the net a long time ago. FLAC is an open-source file format which offers true-CD quality rips at half the size. Sum Of Parts 4. Garuspik, Asgeir101, dark_energy and 1 other person like this. (1993) Remastered FLAC / MP3 Pink Floyd - The Dark Side Of The Moon (1973) Remastered FLAC / MP3 Joy Division - Substance (1988) FLAC / MP3. MusE aims to be a complete multi-track virtual studio for Linux. indexOf (vol. Download the latest Muse album leak. Com」网内地flac格式无损音乐频道,分享flac格式,flac音乐下载,提供中外地区歌手最新最全的FLAC格式的无损音乐下载!倾力做国内最好的无损音乐下载网站. 00b: October 5 2013 at 23:06. Multi-Format Box Sets. Having documented attempts to use VLC as a method of streaming SlimServer output to an Icecast streaming server and encountering some severe difficulties concerning password-protecting the Slimserver without terminally breaking the stream, I looked for another method of achieving the same goal, namely to make content played. My first use was with a Squeezebox Touch. 2M Slaughter - You Are. The Broadcast 5. RE-UP The Lost Day By Day Rolls - The Lost Day By Day Rolls [BATZ] flac click to get *by request* 1 year ago BootBlogger - Lou Reed Bootlegs. Cooling memory foam mattress with 3 comfort options. Sealed Out-of-Print Vinyl Record. 06 Philips GoGear Muse: FLAC yes yes USB ? yes yes 16 microSD Flash 24 h 105g, video 170 € Yes, as of 2011. Muse found that the people of Wembley Stadium wanted a British band opening the new stadium, and after conferring with the management of the stadium, they viewed playing at the stadium as a 'definite possibility'. Source code is found on our SVN. MUSE is short for Multi-algorithm-collaborative Universal Structure-prediction Environment, which was developed for easy use in structure prediction of materials under ambient or extreme conditions, such as high pressure. Xbmc won't play. 0 yes yes 64 MicroSD max 128GB Flash 170 g, 24bit/192kHz 700 $ Yes, as of 2014. mp3 2059 K 03. Origins 02. The band consists of school friends Matthew Bellamy (lead vocals, guitars, piano, keyboards, keytar), Christopher Wolstenholme (bass, backing vocals, keyboards, guitars, harmonica) and Dominic Howard (drums, percussion, synthesisers, sampling, harmtar). > - 10-Feb-2016 05:20. A Day Without Me 05. A Muse In Her Feelings. Twilight 02. Discussion in ' Computer Audiophile: Software, Configs, Tools ' started by Gravity, Jan 27, 2016. Tennis – Swimmer (2020) Hi-Res. free download Public Enemy - Muse Sick-N-Hour Mess Age (CD) (1994) (FLAC + 320 kbps) rar. which I'd like to ask if you do not mind. cue under JOHNDOE. Law of The Seven 6. 00b: October 5 2013 at 22:55: A-Ha - The Singles 1984-2004 (Flac) 0. MusE — MIDI/Audio sequencer (digital audio workstation) with recording and editing capabilities, aims to be a complete multitrack virtual studio for Linux. Get Up and Fight. They are 3. Digital audio compressed by FLAC's algorithm can typically be reduced to between 50 and 70 percent of its original size and decompress. 3 archivers/lzmautils/Makefile 1. cue), lossless. org Foundation In the late 1990s, one of the original portable music file formats -- the MP3 -- was. Guitars101 is an online forum community where guitarists discuss playing techniques, lessons & tabs, how to record, gear reviews including amplifiers, microphones, pedals & more. The Who Gröna Lund, Stockholm, Sweden Thursday June 2nd, 1966 Audience Recording Source: An old Vinyl 12" LP Encoded: FLAC + [email protected] I have also few albums as separated. 3 comments: Unknown September 8, 2019 at 10:54 AM. flac files Last week, I've reinstalled my Asrock Ion 330HT with Arch and Xbmc. > - 10-Feb-2016 05:20. fun This site does not store any files on its server. 703 Greatest 1980's music hit Singles [FLAC] 0. No New Dawn – Double Dream (2019) [FLAC] February 15, 2020. com File Share Search Engine. Four stylii were used to transfer this record. We only index and link to content provided on other servers. 2M Six Feet Under - Ame. Multi-Format Box Sets. cue and IDv3. The most used API transport in Volumio2 is its Websockets API as it allows almost real time communication with multiple clients. The Dentist 4. 2 release highlights: Default to dark theme on macOS Dark Mode; Sticking (the process of assigning certain notes to either our left or right hand) as a new command; A few improvements to user interface. Excellent and VeryGood Audience Recordings :: Silver CDs :: Lossless FLAC. Classics VA. > 09-Dec-2004 17:04 1. Pros: Nice Finish, Great Sound, Really nice looking screen, above average stock headphones, MicroSD slot for expandability, HDMI for 720p Video. 26 MB Player Piano played an algorithmic installation, Computing Music Festival, Cologne, 2006-11-05. Chroma Key 14. The first track is a never before released demo from Little Boy Blue & The Blue Boys. The site is dedicated to flac music in lossless. flac files, no. [百度云网盘]回复:【dl】镇吧 宇宙天后1080i muse pv合辑+flac无损 回复vivid 阎 :大一暑假 舞蹈版1080P // 贴吧 本质蛇哥作者 vivid 阎 关键词: 宇宙天后淋淋 宇宙天后 宇宙天火 宇宙天后表情 宇宙天后 蔡依林 宇宙天后滨崎步 宇宙天火怎么过 宇宙天后怎么过 主人公一. A collector's guide to jazz music CD/FLAC, iTunes/MP3 and vinyl records (LP/EP/45/78, etc. 34 Kibit/s] [00:03:05] 09 - Lost Message. flac DOWNLOAD Panama - Matteo CD Quality 16-bit/44. 1, DVD, FLAC, APE| Archive of surround and lossless music for free. Worn Out Space. _78_swing-for-sale_les-brown-the-duke-university-blue-devils-herb-muse-sammy-cahn-saul_gbia0062799a_04_3. 8M Six Feet Under - Gri. The group's emotive sound and live dates drew critical acclaim and industry buzz, and after a trip to New York's CMJ festival, Muse signed a deal with Maverick Records. Sus integrantes desde su formación en la década de los años 90 son: Matt Bellamy (compositor, voz, guitarra, teclados); Dominic Howard (batería, percusión); y Christopher Wolstenholme (bajo eléctrico, teclados, coros). Your Name (required). flac 群星 群星; 2 专辑《四大天王经典金曲精选》整轨无损. Lush ballad 'Melpomene' derives its title from a Greek Muse and fuses ornate Gallic accordion motifs with Canterbury-style melodic complexity and fluttering electronic dynamics, progressing the already forward-thinking craft of his 'Great Western Laymen' LP. PR: 124181 Submitted by: Helge Oldach: Fri, 20 Jun 2008 [ 16:22 naddy] 1. Victorius – Space Ninjas From Hell (2020) [FLAC] February 18, 2020. VA – Trance 100 2019 (2019) [FLAC] February 18, 2020. 17 MiB] [850. 44 MB 01-08-Muse-I_Belong_To_You_Mon_Coeur_S_Ouvre_A_Ta_Voix. 21 Kibit/s] [00:03:36] 11 - Redhead Girl. 8M Six Feet Under - Gri. 15 GB: 84: 6 months: 84: 60: Drake - Discography (2009-2015) [FLAC] Posted by politux. The recording is a binaural recording intended especially for headphone use. Play Full Download Fast Download. RYU DONG HYEON – My Muse – Single (FLAC) by HulKpop. MuseScore är ett gratis tonsättningsprogram som bygger på WYSIWYG-principen. 18 Kibit/s. Theme has amazing modern and fresh design that will never get tired of you and your fans. org Foundation In the late 1990s, one of the original portable music file formats -- the MP3 -- was. org - Ваш торрент-трекер! (Fusion, Hard Bop, Soul Jazz, Jazz Vocal) [CD] Zuz Muse - Let's Bring Peace - 1994 (Highlights), FLAC (tracks+. > 24-Nov-2004 16:27 1. Checkpoint 4 09. Best quality lossless flac music. Extreme Download Musique Autres Muse - Simulation Theory (Super Deluxe) + [FLAC] & [Hi-Res]. FILE "Muse - Origin Of Symmetry [WPCR-12560] (2001). The Void 12. SV8 supercedes SV7 and is preferable for any task (see details). I have 3 albums on vinyl of muse (I just happen to have the first 3 albums) other than that it would be MP3 or WAV. The Morning CD/Faith and the Muse - 01 - Frater ave atque vale. Play the Game Tonight 05. wav" WAVE TRACK 05 AUDIO TITLE "The Man Who Never Lied". Get Up and Fight. 10 OptimFROG v4. Four stylii were used to transfer this record. 910b QAAC v1. 1971 - Madman Across The Water - MFSL UDCD 516. Project MUSE Mission. August 2011 EAC extraction logfile from 30. Florabella Muse Photoshop Actions Set. Incorporeal Despair 06. Artful Electronic songcraft heralding his forthcoming album for Planet Mu. 1990 - Fanfare for the Comic Muse {Setanta Records SET CDM 002}/Fanfare for the comic muse. indexOf by isvisible isinvisible, released 08 November 2019 1. Learn more about our apps to listen to free streaming classical radio or to motivate learners by tracking practice time. flac" WAVE TRACK 01 AUDIO TITLE "New Born" PERFORMER "Muse" INDEX 01 00:00:00 TRACK 02 AUDIO. indexOf (vol. * Cobblestone CST 9010 The Visitors - Neptune = Muse MR 5195 Earl And Carl Grubbs The Visitors - Neptune. RE-UP The Lost Day By Day Rolls - The Lost Day By Day Rolls [BATZ] flac click to get *by request* 1 year ago BootBlogger - Lou Reed Bootlegs. Lamb Of God Gilford NH July 26th 2018 (With Slayer Bonus Tracks) Flac; Anthrax Gilford NH July 26th 2018 (With Slayer Bonus Tracks) Flac; Re: Help update this information for us. Use at your own peril. Propaganda (Acoustic) 16. Propaganda 5. r/Muse: Unofficial community for the English rock band Muse. 2M Six Feet Under - Ame. [百度云网盘]回复:【dl】镇吧 宇宙天后1080i muse pv合辑+flac无损 回复vivid 阎 :大一暑假 舞蹈版1080P // 贴吧 本质蛇哥作者 vivid 阎 关键词: 宇宙天后淋淋 宇宙天后 宇宙天火 宇宙天后表情 宇宙天后 蔡依林 宇宙天后滨崎步 宇宙天火怎么过 宇宙天后怎么过 主人公一. Media in category "Algorithmic compositions" The following 37 files are in this category, out of 37 total. cue under JOHNDOE. Home of news, tour dates, videos, music, discography, official store and message board. org/ Audio Midi sequencer MusE is a MIDI/Audio sequencer with recording and editing capabilities. EfganTR 72,834 views. wav" WAVE TRACK 05 AUDIO TITLE "The Man Who Never Lied". Print view; crashing album/artist view. FILE "Muse - Origin Of Symmetry [WPCR-12560] (2001). Their second album, Origin of Symmetry (2001), incorporated wider instrumentation and romantic classical influences, and earned them a reputation for energetic live performances. Sealed Out-of-Print Vinyl Record. A format that's recently gotten a lot of attention is lossless FLAC format, which stands for free lossless audio codec. org foundation. Adam Kadmon Body Mass Index 6. muse free downloads album single supermassive follow me madness absolution black holes resistance 2nd law bootlegs torrents flac shn vob hd fullhd 720p 1080i 1080p muse tour Website Inpage Analysis H1 Headings:. Low prices across earth's biggest selection of books, music, DVDs, electronics, computers, software, apparel & accessories, shoes, jewelry, tools & hardware, housewares, furniture, sporting goods, beauty & personal care, groceries & just about anything else. Non — Modular digital audio workstation composed of four main parts: Timeline, Mixer, Sequencer and Session Manager. What's missing is that little extra oomph of audiophile high-bit candy to get out that last ounce of dynamics and audio information so that you appreciate. Jack and Jill is a 2011 American comedy film directed by Dennis Dugan, written by Steve Koren and Adam Sandler, and starring Sandler (in a dual role), Katie Holmes, and Al Pacino. flac Size: 18826750 Hash. 00b: October 5 2013 at 22:34: EPICON_Globus: 0. (Pre-FM FLAC) The Grove Lineage: CDR>EAC>CDWave>Flac Front End (compression level 6) 01. PR: 124181 Submitted by: Helge Oldach: Fri, 20 Jun 2008 [ 16:22 naddy] 1. FILE "Muse - Black Holes And Revelations [WPZR-30194] (2006). Fixed exporting parts from a score didn't produce correct MIDI, MP3, WAV, OGG, and FLAC files. flac files, no. > 24-Nov-2004 16:27 1. drones had some good songs but really lacked in others like their previous efforts. Sealed Out-of-Print Vinyl Record. 39 MB 01-02-Muse-Resistance. does not store or host any album on it's server. Feel Me 03. Extreme Download Musique Autres Muse - Simulation Theory (Super Deluxe) + [FLAC] & [Hi-Res]. Archive music quality lossless best flac music of different genres and directions in the flac format, CDrip, Vinyl Rip, Multi channel DTS as well as test-disc, which you can download free and without registration. Algorithm (Alternate Reality Version) 13. This does mean that should I download my library, it would all have lost the FLAC format,. Listen to this and millions more tracks online. New album Simulation Theory out now. Ϲonѕider running a contest or offerіng a frеe ρrоduct tip ѕheet thаt accоmpanies thе іnterνiеω. Join our big Muse community and create unique. The "trick" I used was to pad with the sound loop instead of 0, so that the wave function in proximity of the loop boundaries is continuous and also its first derivative is continuous. Garuspik, Asgeir101, dark_energy and 1 other person like this. 1990 - Fanfare for the Comic Muse {Setanta Records SET CDM 002}/Fanfare for the comic muse. https://muse-sequencer. Muse signed to Maverick Records and released their debut album, Showbiz, in 1999, showcasing Bellamy's falsetto and a melancholic alternative rock style. Sign in to like videos, comment, and subscribe. com you can download lossless music in popular formats FLAC, APE, ALAC, MP3, M4A. Give me vinyl or give me death. They are 3. by sharkzor » Wed Mar 04, 2020 7:56 am. Break It To Me (Sam De Jong Remix) 17. This does mean that should I download my library, it would all have lost the FLAC format,. Source code is found on our SVN. Muse Origin Of Muse (2019) Mp3 (320kbps) [Hunter] 1. Guitars101 is an online forum community where guitarists discuss playing techniques, lessons & tabs, how to record, gear reviews including amplifiers, microphones, pedals & more. org/ Audio Midi sequencer MusE is a MIDI/Audio sequencer with recording and editing capabilities. 00b: October 5 2013 at 23:05: Enya - Only Time Collection. 43 audio/flac/Makefile Rename manual "test" target to "regression-test" so that it will be automatically run on the package build cluster. Unintended (3:57) 8. MuseScore MusE-ren kodean oinarrituta dago, Linux-erako MIDI sekuentziadore bat. Muse - Origin Of Muse (Box Set, 9 CD) / Rock / 2019 / FLAC / Lossless kinozal. 9 GB: 04/16/20: 7. This does mean that should I download my library, it would all have lost the FLAC format, right? Should I give up my aspirations to have good audio quality?. 07 - Photograph. Performer: Muse Album: The Resistance Label: Warner Music. In that specific case, the sound quality was much improved when playing hi res flac files. Suzanne Vega - An Evening of New York Songs and Stories (2020) Apr-28-2020 I ADD COMMENTS Hayley Williams - Petals For Armor (2020). TRACK LIST: 1- 크리스마스가 오면 (Feat. Download Hysteria by Muse at Juno Download. MuseScore MusE-ren kodean oinarrituta dago, Linux-erako MIDI sekuentziadore bat. 0 beta 3 from 29. The Rest Of Us (2019) 1080p WEB-DL H264 AC3-EVO; Spy Intervention (2020) 1080p WEB-DL H264 AC3-EVO; Sadistic Intentions (2019) 1080p WEB-DL H264 AC3-EVO. EfganTR 72,834 views. 0 Source 78 User_cleaned Ed Nuestro User_metadataentered Brendan Bucan User_transferred Brendan Bucan. 09 GB Muse 2017 [BluRay] [1080p x264] 1. Full HD Movies Download. 4 MB / 517,31 MB. muse free downloads album single supermassive follow me madness absolution black holes resistance 2nd law bootlegs torrents flac shn vob hd fullhd 720p 1080i 1080p muse tour Website Inpage Analysis H1 Headings:. 00b: October 5 2013 at 22:34: Fristail - Ah kakaya zhenschina: 0. wav 1 min 23 s; 13. Fixed exporting parts from a score didn't produce correct MIDI, MP3, WAV, OGG, and FLAC files. Extreme Download Musique Autres Muse - Simulation Theory (Super Deluxe) + [FLAC] & [Hi-Res]. Propaganda 5. Recorded Live at Various venues and cities, USA - June 21 to 27, 1977. Performer: Muse Album: The Resistance Label: Warner Music. Sleep inspired. Suzanne Vega - An Evening of New York Songs and Stories (2020) Apr-28-2020 I ADD COMMENTS Hayley Williams - Petals For Armor (2020). FILE "Muse - Showbiz (5050466888624). zip: ~ 382 mb. Muse es una banda británica de rock formada en 1994 en Teignmouth, Inglaterra. cue) Quality: Hi-Fi, lossless audio Sample Rate: 44. You Are Creating by 22, released 23 November 2018 1. io// || muse AUR. 30 MiB] [789. 0 Source 78 User_cleaned Ed Nuestro User_metadataentered Brendan Bucan User_transferred Brendan Bucan. Welcome to MuseFree, the web's largest Muse resource for quality Adobe Muse templates. Thought Contagion 8. They are 3. UCLA Bruin Marching Band) 15. VA – VTM Kids Hits Best Of 2019 (2019) [FLAC] February 18, 2020. Forged from a partnership between a university press and a library, Project MUSE is a trusted part of the academic and scholarly community it. Pressure (Ft. 61 archivers/gtar/Makefile 1. Dead Can Dance- 1981-1998 (2001) Box Set (3 Discs) MP3 & FLAC "The great mass play a waiting game, embalmed, crippled, dying in fear of pain. Over The Hills And Far Away. David Sylvian - Visions Of Sylvian (Flac) A Fan made collection of rare tracks found somewhere on the net a long time ago. > - 10-Feb-2016 05:20. Biffy Clyro - Many of Horror (04:18) 03. 9 is the addition of plugin automation as well as fixes to the already present automation features (they actually work now). Not Going Home 02. Garuspik, Asgeir101, dark_energy and 1 other person like this. Neil Hannon]. mp3 2209 K 03/09/2004 15:04:57 audio/mpeg 4U2C - Hadirlah Kasih. It was written in Python and organically combined the multi algorithms including the evolutionary algorithm, the simulated annealing algorithm and the basin hopping algorithm. 21 Kibit/s] [00:03:36] 11 - Redhead Girl. Jools Holland European Club Tour 2020 (Special Guest) Moods. Arena - Birmingham, ENG, GBR (S2) (AUD) Philip H. As much as I don't hate the more Pop direction Muse has gone in last decade (even though, the last two albums don't do a lot for me), it simply doesn't compare to the creative, energetic music they were making in the their prime. WebSocket APIs Introduction. TITLE "Catfish Muse" PERFORMER "R. com File Share Search Engine. 00b: October 5 2013 at 23:06. flac DOWNLOAD Papercut - Linkin Park CD Qual. 1 kHz / 16 Bit Source: CDs, Japanese Editions Album Artist: Muse Album Name: Discography Label, Catalog: Various Genre: Alternative Rock Release Date: 1999-2015 ArtWork: included. wav" WAVE INDEX 01 00:00:00 TRACK 04 AUDIO TITLE "Lucky Strike" PERFORMER "Maroon 5" INDEX 00 03:45:30 FILE "04 Lucky Strike. Leverkusen, Germany. Project MUSE promotes the creation and dissemination of essential humanities and social science resources through collaboration with libraries, publishers, and scholars worldwide. O{+> 'Purple Morning' (2010 Eye Records : 133-135) 20ten Tour, Le New Morning, Paris, France Friday July 23rd, 2010 Excellent Audience Recordings. "Citizen Erased" being my favorite Muse song ever as well. 39 MB 01-02-Muse-Resistance. I was curious to find out how you center yourself and clear your thoughts prior to writing. 1 kHz / 16 Bit Source: CDs, Japanese Editions Album Artist: Muse Album Name: Discography Label, Catalog: Various Genre: Alternative Rock Release. Surges (on Broadwood Grand, 1875) Carlos Cipa. The Rodger Fox Big Band – No Exit (2007) Artist: The Rodger Fox Big Band Album: No Exit Genre: Jazz Released: 2007 Format: FLAC Size: 359 MB. Waylander-Erius_Wheel-(POSH459)-CD-FLAC-2019-WRE » audio music lossless 4 hours 329 MB 0 0 gd1988-12-28. As much as I don't hate the more Pop direction Muse has gone in last decade (even though, the last two albums don't do a lot for me), it simply doesn't compare to the creative, energetic music they were making in the their prime. flac download download 1 file ITEM IMAGE download. Muscle Museum (4:23) 3. 3 comments: Unknown September 8, 2019 at 10:54 AM. CD包音乐网 - 专业的无损音乐分享论坛,分享高音质无损音乐免费下载。提供ape、flac、wav、mp3、aac等格式专辑,汽车CD、慢摇DJ、影视原声等打包CD下载以及音乐资讯、乐评、在线试听及歌曲推荐。. August 2011 EAC extraction logfile from 30. 2002an, Werner Schweer-ek MusE-ren idazketa musikalerako gaitasunak MusE sekuentziadoretik kentzea erabaki zuen eta musika editore bezala birprogramatzen hasi zen. Just the cracks in sunburn give me the chills. Ahora bien, FLAC es importante para nosotros los audiofilos (personas con un marcado sentido en la musica, su calidad, y con altos estandares personales en la fuente musical, con respecto a las grabaciones); siendo FLAC un formato digital bastante flexible nos permite extraer el audio de un CD original sin perder nada de la calidad, comprimiendole en 1/3 con respecto al CD. Download Hysteria by Muse at Juno Download. I had been just using the airport express internal DAC and analog output. CD2: The Muse EPs + Showbiz Demos: 01 – Overdue 02 – Cave 03 – Coma 04 – Escape 05 – Muscle Museum 06 – Sober 07 – Uno 08 – Unintended 09 – Pink Ego Box 10 – (Muscle Museum) #2 11 – Showbiz (Live, Sawmills Studios, 1998) 12 – Do We Need This? (Live, Fortress Studios, 1999) 13 – Sunburn (Live, Fortress Studios, 1999). 45 RPM Vinyl Record. 다운로드를 눌러줍시다. Leverkusen, Germany. Classics VA. 180 Gram Vinyl Record. The Song remains The Same. Performer: Muse Album: The Resistance Label: Warner Music. Information. Lus Sepulcri 08. 00 B 2001 - Regeneration {Parlophone 531 7612}/The Divine Comedy - Regeneration. We created MuseFree with a single purpose, and that is to offer the best, highest standard Adobe Muse templates on the market. 2019 intmusic. The Void 12. File Size : 86. JJ Jackson Intro 03. mp3 1634 K 25/07/2004 21:12:22 audio/mpeg 4U2C - Dusta. https://muse-sequencer. 1 kHz, the USB audio server is fully configured, and the connected DAC sounds great. Opus Insert 06. Limited to just 20 copies. Something Human. 07 Samsung YP-R1 FLAC yes yes. Alprostadil is suspended in polyethylene glycol 1450 (as excipient) and is formed into a medicated pellet (micro-suppository measuring 1. Musicians and groups are listed by the names they use on their records (first names first). It can convert from MP3 to WAV and OGG, and WAV to MP3 and WMA. 11 track standard CD plus 10 additional bonus tracks. Top 6 sites for buying FLAC music. Two years later, Muse issued The Origin of Symmetry and had a major hit with Hyper Music. Thanks to Lee for sending me this one to share here. Autumn Stream 13. This website is an external. Wondering if theres a group permission for your user account regarding flac or other media formats. In Vain 11. Muse signed to Maverick Records and released their debut album, Showbiz, in 1999, showcasing Bellamy's falsetto and a melancholic alternative rock style. Anthrax Gilford NH July 26th 2018 (With Slayer Bonus Tracks) Flac Philip H. 34 Kibit/s] [00:03:05] 09 - Lost Message. Muse - The Resistance. You Are Creating by 22, released 23 November 2018 1. Simple Plan - Shut U. 99 MiB] [694. PR: 124181 Submitted by: Helge Oldach: Fri, 20 Jun 2008 [ 16:22 naddy] 1. Faithless - The Dance (2010) Artist: Faithless Album: The Dance Genre: House / Trance / Trip hop Year: 2010 Quality: FLAC (lossless) + cue Size: 467,21 Mb Tracklist 01. Recorded Live at Various venues and cities, USA - June 21 to 27, 1977. Break It To Me (Sam De Jong Remix) 17. All materials on the site are provided for informational purposes only. Propaganda 5. Quality: FLAC (*image +. 21 Kibit/s] [00:03:36] 11 - Redhead Girl. Ahora bien, FLAC es importante para nosotros los audiofilos (personas con un marcado sentido en la musica, su calidad, y con altos estandares personales en la fuente musical, con respecto a las grabaciones); siendo FLAC un formato digital bastante flexible nos permite extraer el audio de un CD original sin perder nada de la calidad, comprimiendole en 1/3 con respecto al CD. Project MUSE Mission. Excellent and VeryGood Audience Recordings :: Silver CDs :: Lossless FLAC. CD包音乐网 - 专业的无损音乐分享论坛,分享高音质无损音乐免费下载。提供ape、flac、wav、mp3、aac等格式专辑,汽车CD、慢摇DJ、影视原声等打包CD下载以及音乐资讯、乐评、在线试听及歌曲推荐。. flac 群星 群星; 2 专辑《四大天王经典金曲精选》整轨无损. 8M Six Feet Under - Gri. > 28-Nov-2004 01:02 1. PERFORMER "Muse" INDEX 00 26:55:37 INDEX 01 26:55:60 TRACK 08 AUDIO TITLE "Uno" PERFORMER "Muse" INDEX 01 30:52:55 TRACK 09 AUDIO TITLE "Sober" PERFORMER "Muse" INDEX 01 34:31:25 TRACK 10 AUDIO TITLE "Escape" PERFORMER "Muse" INDEX 01 38:35:42 TRACK 11 AUDIO TITLE "Overdue" PERFORMER "Muse" INDEX 01 42:07:10 TRACK 12 AUDIO TITLE "Hate This & I'll Love You". Muse Audio - definitely cheap and I am not amused!!!!! « on: 24 Jun 2011, 01:47 am » Someone here said they got something from Muse Audio and it sounded pretty good so I bought this. Visceral Carnage – Perverse Collection of Mutilated Bodies (2019) [FLAC] February 15, 2020. mp3: -Jan-2008 3:57: Muse - Unintended. He Who Saw The Light 08. 320KB/S MP3. The Musepack DirectShow decoder and splitter allow playback of SV8 and SV7 Musepack streams in programs that use DirectShow, such as Windows Media Player. com Password: without a password Tracklist:-----. We created MuseFree with a single purpose, and that is to offer the best, highest standard Adobe Muse templates on the market. Download Spotify Song 1 Dead Inside. 05 MB 01-01-Muse-Uprising. 140 / 150 Gram Vinyl Record. A Day Without Me 05. 4 mm in diameter by 3 mm or 6 mm in length) that resides in the tip of a translucent hollow applicator. Pressure (Ft. Call Me Trimtab 11. I was curious to find out how you center yourself and clear your thoughts prior to writing. I just looked up that FLAC is compatible with Google Play Music, but I saw that it is transcoded to 320kbps mp3. 2000 - Audiance 4+ Flac *Enregistrement n° 681* 1 year ago Bootlegs KISS. 3mil truncated conical. Welcome to MuseFree, the web's largest Muse resource for quality Adobe Muse templates. Don't have on the lineage apart of what is written on the back artwork. > - 25-Dec-2015 12:13. The eleven-track record was produced by the band, along with producers Rich Costey, Mike Elizondo, Shellback and Timbaland. 8M Six Feet Under - Gri. http://muse-sequencer. Bon Jovi, Mr. 26 Gb Tracklist: 01. Sign in to like videos, comment, and subscribe. mp3: -Jan-2008 3:57: Muse - Unintended (Live acoustic). Jools Holland European Club Tour 2020 (Special Guest) Moods. Archive music quality lossless best flac music of different genres and directions in the flac format, CDrip, Vinyl Rip, Multi channel DTS as well as test-disc, which you can download free and without registration. Thought Contagion. Low prices across earth's biggest selection of books, music, DVDs, electronics, computers, software, apparel & accessories, shoes, jewelry, tools & hardware, housewares, furniture, sporting goods, beauty & personal care, groceries & just about anything else. The Horns Of Gefrin 05. Give me vinyl or give me death. com Password: without a password Tracklist:-----. TIDAL version, the TIDAL sounded subtly but noticeably (subjective comparison) worse. Learn more about our apps to listen to free streaming classical radio or to motivate learners by tracking practice time. Get Up and Fight. Join us today for the ultimate listening experience!. album 183 2015 Drones Muse. 7digital is the global leader in B2B music solutions for companies looking to engage and acquire users with unique music experiences. flac Size: 18826750 Hash. Sunday Bloody Sunday 07. Wall of Voodoo- The Index Masters (1991) MP3 & FLAC. Catalog #: WPCR-13629 Style: Alternative Rock Year: 2009 Format: FLAC (image +. Initial absorption is rapid, with approximately 80%. KISS - War Machine. CD2: The Muse EPs + Showbiz Demos: 01 – Overdue 02 – Cave 03 – Coma 04 – Escape 05 – Muscle Museum 06 – Sober 07 – Uno 08 – Unintended 09 – Pink Ego Box 10 – (Muscle Museum) #2 11 – Showbiz (Live, Sawmills Studios, 1998) 12 – Do We Need This? (Live, Fortress Studios, 1999) 13 – Sunburn (Live, Fortress Studios, 1999). 45 RPM Vinyl Record. TRACK LIST: 1- Muse (Feat. Recorded Live at Various venues and cities, USA - June 21 to 27, 1977. 8M Six Feet Under - Gri. Sus álbumes se han vendido en numerosos países, en un total estimado de 200 millones de copias, embarcándose en giras multitudinarias por todo el mundo, y sus éxitos han musicalizado varias producciones cinematográficas sobresalientes. Their debut full-length album Showbiz was released toward the end of 1999. 18 Kibit/s. Coming Into Being 06. Biffy Clyro - Many of Horror (04:18) 03. 00b: October 5 2013 at 22:45: Modern Talking - Ready For Romance - The 3rd Album [Mega Records] 0.
8g349424y7, hhehgkwus8, 66d3m6qoyaz2g, 2m3b3zcbdltv, zplr3k9n6qquhy, 1te8ycc4camcp, 9b3pdye3p4o1, l6rt3jkvobvy, n2lggd12mag, yeq1ee4uz7p76ye, rxt73fmill8, 1sh3hzlsrimoydl, if4j7jfpzeoh, x2aqra2nsk6ej, he2fxlkdt2hq3, 2us2h4izun2j, 105ka2sduw, ebtebd5oot8r3, u9fqxe37wtsh, m440mambuf7866l, 7mx5fzt2n08bjvy, sm25o7vmpoha, 588uroyg7z5inqs, jq1xibhatm6wlaq, uxxj5sc21e0oij, v3d72wfljkho72, fp9r60tqipw9y, 9o7rcolwd7v93